_KOOK
武林高手

[2013] [欧美] [犯罪] [BD-1080P] [BT下载]迷幻.Trance.2013.UK.BluRay.1920x800p.x264.DTS-KOOK.[中英双字] 7.64GB

-->

迷幻.Trance.2013.UK.BluRay.1920x800p.x264.DTS-KOOK.[中英双字] 7.64GB




※※※※※※※ 影片信息 ※※※※※※※


◎片   名 Trance

◎译   名 迷幻 / 催眠潜凶(港) / 索命记忆(台) / 恍惚

◎年   代 2013

◎国   家 英国

◎类   别 剧情 / 惊悚 / 犯罪

◎语   言 英语

◎上映日 期 2013-03-27(英国) / 2013-04-05(美国)

◎字   幕 中英双字/简体字幕/繁体字幕/英文字幕

◎IMDB 评分  6.9/10 from 99848 users

◎豆瓣 评分  6.9/10 from 16469 users

◎视频尺 寸  1920x800p

◎片   长 1.41.19

◎导   演 丹尼·博伊尔

◎编     剧  乔·阿希恩 / 约翰·霍奇

◎主   演 詹姆斯·麦卡沃伊 / 文森特·卡索 / 罗莎里奥·道森 / 丹尼·萨帕尼 / 塔彭丝·米德尔顿




 

◎简  介



  Simon Newton(詹姆斯·麦卡沃伊 James McAvoy 饰)是Delancy’s 拍卖行的一名高级工作人员,他尤其擅长在名画面临被盗时的保卫工作。这天,著名画家Goya的一副画《Witches In The Air》(空中女巫)正在拍卖,这幅画预计价值两千五百万英镑。同时,一个以Franck(文森特·卡索 Vincent Cassel 饰)为首的盗贼团伙正在策划盗走这幅画。Franck们的计划进行得十分顺利,而Simon在面对这种场面时也驾轻就熟,迅速将这幅画用袋子装起,进行转移。当Simon即将把画送到安全地方之时,Franck出现了,他用枪击打了Simon的头部,并抢走这幅画。Simon晕了过去。回到家的Franck惊讶地发现,他打开袋子,却发现里面空无一物。Simon苏醒后,Franck找到了他,原来Simon是和Franck一伙的。然而Simon的头部受伤失去了部分的记忆,他忘记了那幅画在哪里。于是Franck带着Simon去找了一个女催眠师Elisabeth(罗莎里奥·道森 Rosario Dawson 饰),希望能够通过催眠让他恢复记忆......






※※※※※※※ 参数信息 ※※※※※※※




General

Unique ID                      : 223058058147972202363883071363106860157 (0xA7CF6B5AADE0831D861F4B18E659EC7D)


Format                         : Matroska

Format version                 : Version 4 / Version 2

File size                      : 7.65 GiB

Duration                       : 1 h 41 min

Overall bit rate               : 10.8 Mb/s

Encoded date                   : UTC 2017-12-02 11:07:48

Writing application            : mkvmerge v9.4.2 ('So High') 64bit

Writing library                : libebml v1.3.4 + libmatroska v1.4.5

Attachments                    : 正式海报 美国.jpg


Video

ID                             : 1

Format                         : AVC

Format/Info                    : Advanced Video Codec

Format profile                 : High@L4.1

Format settings, CABAC         : Yes

Format settings, ReFrames      : 5 frames

Codec ID                       : V_MPEG4/ISO/AVC

Duration                       : 1 h 41 min

Bit rate                       : 9 302 kb/s

Width                          : 1 920 pixels

Height                         : 800 pixels

Display aspect ratio           : 2.40:1

Frame rate mode                : Constant

Frame rate                     : 23.976 (24000/1001) FPS

Color space                    : YUV

Chroma subsampling             : 4:2:0

Bit depth                      : 8 bits

Scan type                      : Progressive

Bits/(Pixel*Frame)             : 0.253

Stream size                    : 6.58 GiB (86%)

Title                          : kook

Writing library                : x264 core 133 r2334 a3ac64b

Encoding settings              : cabac=1 / ref=5 / deblock=1:-3:-3 / analyse=0x3:0x113 / me=umh / subme=8 / psy=1 / psy_rd=1.00:0.00 / mixed_ref=1 / me_range=16 / chroma_me=1 / trellis=1 / 8x8dct=1 / cqm=0 / deadzone=21,11 / fast_pskip=1 / chroma_qp_offset=-2 / threads=18 / lookahead_threads=3 / sliced_threads=0 / nr=0 / decimate=1 / interlaced=0 / bluray_compat=0 / constrained_intra=0 / bframes=3 / b_pyramid=2 / b_adapt=2 / b_bias=0 / direct=3 / weightb=1 / open_gop=0 / weightp=2 / keyint=240 / keyint_min=24 / scenecut=40 / intra_refresh=0 / rc_lookahead=50 / rc=2pass / mbtree=1 / bitrate=9302 / ratetol=1.0 / qcomp=0.60 / qpmin=0 / qpmax=69 / qpstep=4 / cplxblur=20.0 / qblur=0.5 / ip_ratio=1.40 / aq=1:1.00

Language                       : English

Default                        : Yes

Forced                         : No


Audio

ID                             : 2

Format                         : DTS

Format/Info                    : Digital Theater Systems

Format profile                 : ES Matrix / Core

Mode                           : 16

Format settings, Endianness    : Big

Codec ID                       : A_DTS

Duration                       : 1 h 41 min

Bit rate mode                  : Constant

Bit rate                       : 1 509 kb/s

Channel(s)                     : 7 channels / 6 channels

Channel positions              : Front: L C R, Side: L R, Back: C, LFE / Front: L C R, Side: L R, LFE

Sampling rate                  : 48.0 kHz

Frame rate                     : 93.750 FPS (512 spf)

Bit depth                      : 24 bits

Compression mode               : Lossy

Stream size                    : 1.07 GiB (14%)

Title                          : DTS

Language                       : English

Default                        : Yes

Forced                         : No


Text #1

ID                             : 3

Format                         : ASS

Codec ID                       : S_TEXT/ASS

Codec ID/Info                  : Advanced Sub Station Alpha

Duration                       : 1 h 35 min

Bit rate                       : 192 b/s

Count of elements              : 1186

Compression mode               : Lossless

Stream size                    : 135 KiB (0%)

Title                          : 中英字幕

Language                       : Chinese

Default                        : Yes

Forced                         : No


Text #2

ID                             : 4

Format                         : ASS

Codec ID                       : S_TEXT/ASS

Codec ID/Info                  : Advanced Sub Station Alpha

Duration                       : 1 h 35 min

Bit rate                       : 91 b/s

Count of elements              : 1186

Compression mode               : Lossless

Stream size                    : 64.1 KiB (0%)

Title                          : 简体字幕

Language                       : Chinese

Default                        : No

Forced                         : No


Text #3

ID                             : 5

Format                         : ASS

Codec ID                       : S_TEXT/ASS

Codec ID/Info                  : Advanced Sub Station Alpha

Duration                       : 1 h 35 min

Bit rate                       : 91 b/s

Count of elements              : 1186

Compression mode               : Lossless

Stream size                    : 64.1 KiB (0%)

Title                          : 繁体字幕

Language                       : Chinese

Default                        : No

Forced                         : No


Text #4

ID                             : 6

Format                         : ASS

Codec ID                       : S_TEXT/ASS

Codec ID/Info                  : Advanced Sub Station Alpha

Duration                       : 1 h 35 min

Bit rate                       : 134 b/s

Count of elements              : 1186

Compression mode               : Lossless

Stream size                    : 94.6 KiB (0%)

Title                          : 英文字幕

Language                       : English

Default                        : No

Forced                         : No


Menu

00:00:00.000                   : en:00:00:00.000

00:04:05.871                   : en:00:04:05.871

00:08:18.832                   : en:00:08:18.832

00:10:09.859                   : en:00:10:09.859

00:13:06.786                   : en:00:13:06.786

00:15:42.650                   : en:00:15:42.650

00:17:33.678                   : en:00:17:33.678

00:21:57.274                   : en:00:21:57.274

00:23:46.634                   : en:00:23:46.634

00:25:54.720                   : en:00:25:54.720

00:28:11.398                   : en:00:28:11.398

00:31:08.533                   : en:00:31:08.533

00:33:40.644                   : en:00:33:40.644

00:36:31.272                   : en:00:36:31.272

00:39:10.723                   : en:00:39:10.723

00:41:49.340                   : en:00:41:49.340

00:45:58.881                   : en:00:45:58.881

00:51:51.483                   : en:00:51:51.483

00:59:00.287                   : en:00:59:00.287

01:02:10.894                   : en:01:02:10.894

01:08:08.584                   : en:01:08:08.584

01:12:06.822                   : en:01:12:06.822

01:14:36.138                   : en:01:14:36.138

01:16:13.152                   : en:01:16:13.152

01:25:36.548                   : en:01:25:36.548

01:28:16.291                   : en:01:28:16.291

01:31:34.781                   : en:01:31:34.781

01:35:32.769                   : en:01:35:32.769






1 个附件 售价 大小 下载 时间

迷幻.Trance.2013.UK.BluRay.1920x800p.x264.DTS-KOOK.[中英双字].torrent 0 金币 158.68K 2408 次 5天前

#1楼
发帖时间:2017-12-07 18:36:55   |   回复数:6
911degrees
超凡入圣№
非常感谢,谢谢分享
5天前 #2楼
blue23
隐世仙人♂
感谢楼主分享
5天前 #3楼
liyouchai
超凡入圣№
谢谢楼主分享资源
5天前 #4楼
jokingcheung
一代宗师
谢谢分享
5天前 #5楼
yangbo83222179
一代宗师
谢谢楼主分享,支持一下
4天前 #6楼
tanchoohoon
武林盟主
感谢楼主的无私分享
3天前 #7楼
游客组