_KOOK
武林高手

[更 早] [韩国] [爱情] [BD-1080P] [BT下载]爱人.The Intimate.2005.KR.BluRay.1920x1080p.x264.DTS-KOOK.[中英双字] 8.75GB

-->

爱人.The Intimate.2005.KR.BluRay.1920x1080p.x264.DTS-KOOK.[中英双字] 8.75GB






※※※※※※※ 影片信息 ※※※※※※※


◎片   名 The intimate

◎译   名 爱人 / 爱人的欲望 / 爱.诱.欲(港) / Aein

◎年   代 2005

◎国   家 韩国

◎类   别 爱情 / 情色

◎语   言 韩语

◎上映日 期 2005-12-08(韩国)

◎字   幕 中英双字/简体字幕/繁体字幕/英文字幕

◎IMDB 评分  6.0/10 from 764 users

◎豆瓣 评分  6.5/10 from 24613 users

◎视频尺 寸  1920x1080p

◎片   长 1.35.06

◎导   演 金泰恩

◎编     剧  Chang-hun Yun

◎主   演 成贤娥 / 赵东赫 / 金艺玲




 

◎简  介



  她(成贤娥 饰)与他(赵东赫 饰)相遇在电梯里。两人之间莫名的迸发出了情感,享受着高层电梯中的相处时间。 

  她很为难,因为她将要与相恋七年的男友结婚了。但她还是禁不住对他的好奇之心,她不明白自己为何会向这个陌生人倾注如此多的感情。 

  同一天,他们再次相遇了,她更加喜欢温柔的他了,二人发生了关系。






※※※※※※※ 参数信息 ※※※※※※※




General

Unique ID                      : 254229268879317660984708489044265293676 (0xBF42C6B2E8B65BC0A5EABA238490576C)


Format                         : Matroska

Format version                 : Version 4 / Version 2

File size                      : 8.75 GiB

Duration                       : 1 h 35 min

Overall bit rate               : 13.2 Mb/s

Encoded date                   : UTC 2017-12-02 12:43:40

Writing application            : mkvmerge v9.4.2 ('So High') 64bit

Writing library                : libebml v1.3.4 + libmatroska v1.4.5

Attachments                    : 正式海报.jpg


Video

ID                             : 1

Format                         : AVC

Format/Info                    : Advanced Video Codec

Format profile                 : High@L4.1

Format settings, CABAC         : Yes

Format settings, ReFrames      : 4 frames

Codec ID                       : V_MPEG4/ISO/AVC

Duration                       : 1 h 35 min

Bit rate                       : 11.7 Mb/s

Width                          : 1 920 pixels

Height                         : 1 080 pixels

Display aspect ratio           : 16:9

Frame rate mode                : Constant

Frame rate                     : 23.976 (24000/1001) FPS

Color space                    : YUV

Chroma subsampling             : 4:2:0

Bit depth                      : 8 bits

Scan type                      : Progressive

Bits/(Pixel*Frame)             : 0.235

Stream size                    : 7.75 GiB (89%)

Title                          : The.Intimate.2005.Blu-ray.1080p.x264.DTS.MySilu

Writing library                : x264 core 128 r2216 198a7ea

Encoding settings              : cabac=1 / ref=4 / deblock=1:-2:-2 / analyse=0x3:0x113 / me=umh / subme=10 / psy=1 / psy_rd=1.20:0.20 / mixed_ref=1 / me_range=32 / chroma_me=1 / trellis=2 / 8x8dct=1 / cqm=0 / deadzone=21,11 / fast_pskip=0 / chroma_qp_offset=-3 / threads=6 / lookahead_threads=1 / sliced_threads=0 / nr=0 / decimate=0 / interlaced=0 / bluray_compat=0 / constrained_intra=0 / bframes=5 / b_pyramid=2 / b_adapt=2 / b_bias=0 / direct=3 / weightb=1 / open_gop=0 / weightp=2 / keyint=240 / keyint_min=1 / scenecut=40 / intra_refresh=0 / rc_lookahead=72 / rc=2pass / mbtree=1 / bitrate=11664 / ratetol=1.0 / qcomp=0.60 / qpmin=10 / qpmax=51 / qpstep=4 / cplxblur=20.0 / qblur=0.5 / vbv_maxrate=38000 / vbv_bufsize=38000 / nal_hrd=none / ip_ratio=1.40 / aq=1:1.00

Language                       : Korean

Default                        : Yes

Forced                         : No


Audio

ID                             : 2

Format                         : DTS

Format/Info                    : Digital Theater Systems

Mode                           : 16

Format settings, Endianness    : Big

Codec ID                       : A_DTS

Duration                       : 1 h 35 min

Bit rate mode                  : Constant

Bit rate                       : 1 510 kb/s

Channel(s)                     : 6 channels

Channel positions              : Front: L C R, Side: L R, LFE

Sampling rate                  : 48.0 kHz

Frame rate                     : 93.750 FPS (512 spf)

Bit depth                      : 24 bits

Compression mode               : Lossy

Stream size                    : 1.00 GiB (11%)

Language                       : Korean

Default                        : Yes

Forced                         : No


Text #1

ID                             : 3

Format                         : ASS

Codec ID                       : S_TEXT/ASS

Codec ID/Info                  : Advanced Sub Station Alpha

Duration                       : 1 h 32 min

Bit rate                       : 97 b/s

Count of elements              : 636

Compression mode               : Lossless

Stream size                    : 66.3 KiB (0%)

Title                          : 中英字幕

Language                       : Chinese

Default                        : Yes

Forced                         : No


Text #2

ID                             : 4

Format                         : ASS

Codec ID                       : S_TEXT/ASS

Codec ID/Info                  : Advanced Sub Station Alpha

Duration                       : 1 h 32 min

Bit rate                       : 50 b/s

Count of elements              : 636

Compression mode               : Lossless

Stream size                    : 34.7 KiB (0%)

Title                          : 简体字幕

Language                       : Chinese

Default                        : No

Forced                         : No


Text #3

ID                             : 5

Format                         : ASS

Codec ID                       : S_TEXT/ASS

Codec ID/Info                  : Advanced Sub Station Alpha

Duration                       : 1 h 32 min

Bit rate                       : 50 b/s

Count of elements              : 636

Compression mode               : Lossless

Stream size                    : 34.7 KiB (0%)

Title                          : 繁体字幕

Language                       : Chinese

Default                        : No

Forced                         : No


Text #4

ID                             : 6

Format                         : ASS

Codec ID                       : S_TEXT/ASS

Codec ID/Info                  : Advanced Sub Station Alpha

Duration                       : 1 h 32 min

Bit rate                       : 71 b/s

Count of elements              : 636

Compression mode               : Lossless

Stream size                    : 48.6 KiB (0%)

Title                          : 英文字幕

Language                       : English

Default                        : No

Forced                         : No






1 个附件 售价 大小 下载 时间

爱人.The Intimate.2005.KR.BluRay.1920x1080p.x264.DTS-KOOK.[中英双字].torrent 0 金币 92.79K 5110 次 5天前

#1楼
发帖时间:2017-12-07 18:39:34   |   回复数:6
jacky99036
武林高手
谢谢分享此类影片
5天前 #2楼
911degrees
超凡入圣№
非常感谢,谢谢分享
5天前 #3楼
blue23
隐世仙人♂
感谢楼主分享
5天前 #4楼
liyouchai
超凡入圣№
谢谢楼主分享资源
5天前 #5楼
jokingcheung
一代宗师
谢谢分享
5天前 #6楼
tanchoohoon
武林盟主
感谢楼主的无私分享
3天前 #7楼
游客组