_KOOK
武林高手

[更 早] [欧美] [剧情] [BD-1080P] [BT下载]贪婪四重奏.The Lickerish Quartet.1970.IT.US.BluRay.1920x1028p.x264.AC3-KOOK.[中英

-->

贪婪四重奏.The Lickerish Quartet.1970.IT.US.BluRay.1920x1028p.x264.AC3-KOOK.[中英双字] 8.33GB





※※※※※※※ 影片信息 ※※※※※※※


◎片   名 The Lickerish Quartet

◎译   名 贪婪四重奏 / 夜行性情欲魔

◎年   代 1970

◎国   家 意大利 / 美国 / 联邦德国

◎类   别 剧情/情色

◎语   言 日语/英语

◎上映日 期 1970-10-13

◎字   幕 中英双字/简体字幕/繁体字幕/英文字幕

◎IMDB 评分  6.1/10 from 790 users

◎豆瓣 评分  6.7/10 from 155 users

◎视频尺 寸  1920x1028p

◎片   长 1.27.46

◎导   演 拉德利·梅茨格

◎编     剧  Michael DeForrest / 拉德利·梅茨格

◎主   演 Silvana Venturelli / Frank Wolff / Erika Remberg




 

◎简  介


  简介:一对疲惫不堪的富翁夫妇跟他们成年的儿子一起在他们的城堡里看色情电影,儿子很暴躁,所以他们到城镇里去看杂技表演,节目中那个蛮勇的女人跟他们在电影里看见的女人非常像,于是丈夫邀请她去他们城堡作客,家庭内的紧张似乎在加剧,她留下来过夜,她在城堡里的24小时内,城堡的三个居民都对她产生幻觉,她依次问他们,“谁有枪?”访问结束前会发生暴力吗?




※※※※※※※ 参数信息 ※※※※※※※




General

Unique ID                      : 179015744004581560236388704347779855135 (0x86AD2D9DD409C4378A5A99D2CF41731F)


Format                         : Matroska

Format version                 : Version 4 / Version 2

File size                      : 8.33 GiB

Duration                       : 1 h 27 min

Overall bit rate               : 13.6 Mb/s

Movie name                     : The.Lickerish.Quartet.1970.1080p.BluRay.x264.DD2.0-FGT

Encoded date                   : UTC 2017-12-03 02:50:29

Writing application            : mkvmerge v9.4.2 ('So High') 64bit

Writing library                : libebml v1.3.4 + libmatroska v1.4.5

Attachments                    : 正式海报.jpg


Video

ID                             : 1

Format                         : AVC

Format/Info                    : Advanced Video Codec

Format profile                 : High@L4.1

Format settings, CABAC         : Yes

Format settings, ReFrames      : 4 frames

Codec ID                       : V_MPEG4/ISO/AVC

Duration                       : 1 h 27 min

Bit rate                       : 13.4 Mb/s

Width                          : 1 920 pixels

Height                         : 1 028 pixels

Display aspect ratio           : 1.85:1

Frame rate mode                : Constant

Frame rate                     : 23.976 (24000/1001) FPS

Color space                    : YUV

Chroma subsampling             : 4:2:0

Bit depth                      : 8 bits

Scan type                      : Progressive

Bits/(Pixel*Frame)             : 0.283

Stream size                    : 8.22 GiB (99%)

Writing library                : x264 core 116 r2044 392e762

Encoding settings              : cabac=1 / ref=4 / deblock=1:-3:-3 / analyse=0x3:0x133 / me=umh / subme=10 / psy=1 / psy_rd=1.00:0.00 / mixed_ref=1 / me_range=32 / chroma_me=1 / trellis=2 / 8x8dct=1 / cqm=0 / deadzone=21,11 / fast_pskip=0 / chroma_qp_offset=-2 / threads=12 / sliced_threads=0 / nr=0 / decimate=0 / interlaced=0 / bluray_compat=0 / constrained_intra=0 / bframes=6 / b_pyramid=2 / b_adapt=2 / b_bias=0 / direct=3 / weightb=1 / open_gop=0 / weightp=2 / keyint=250 / keyint_min=23 / scenecut=40 / intra_refresh=0 / rc_lookahead=60 / rc=2pass / mbtree=1 / bitrate=13400 / ratetol=1.0 / qcomp=0.60 / qpmin=0 / qpmax=69 / qpstep=4 / cplxblur=20.0 / qblur=0.5 / vbv_maxrate=45000 / vbv_bufsize=45000 / nal_hrd=none / ip_ratio=1.40 / aq=1:0.60

Language                       : English

Default                        : Yes

Forced                         : No


Audio

ID                             : 2

Format                         : AC-3

Format/Info                    : Audio Coding 3

Mode extension                 : CM (complete main)

Format settings, Endianness    : Big

Codec ID                       : A_AC3

Duration                       : 1 h 27 min

Bit rate mode                  : Constant

Bit rate                       : 192 kb/s

Channel(s)                     : 2 channels

Channel positions              : Front: L R

Sampling rate                  : 48.0 kHz

Frame rate                     : 31.250 FPS (1536 spf)

Compression mode               : Lossy

Stream size                    : 121 MiB (1%)

Language                       : English

Default                        : Yes

Forced                         : No


Text #1

ID                             : 3

Format                         : ASS

Codec ID                       : S_TEXT/ASS

Codec ID/Info                  : Advanced Sub Station Alpha

Duration                       : 1 h 27 min

Bit rate                       : 130 b/s

Count of elements              : 686

Compression mode               : Lossless

Stream size                    : 84.1 KiB (0%)

Title                          : 中英字幕

Language                       : Chinese

Default                        : Yes

Forced                         : No


Text #2

ID                             : 4

Format                         : ASS

Codec ID                       : S_TEXT/ASS

Codec ID/Info                  : Advanced Sub Station Alpha

Duration                       : 1 h 27 min

Bit rate                       : 64 b/s

Count of elements              : 686

Compression mode               : Lossless

Stream size                    : 41.1 KiB (0%)

Title                          : 简体字幕

Language                       : Chinese

Default                        : No

Forced                         : No


Text #3

ID                             : 5

Format                         : ASS

Codec ID                       : S_TEXT/ASS

Codec ID/Info                  : Advanced Sub Station Alpha

Duration                       : 1 h 27 min

Bit rate                       : 64 b/s

Count of elements              : 686

Compression mode               : Lossless

Stream size                    : 41.1 KiB (0%)

Title                          : 繁体字幕

Language                       : Chinese

Default                        : No

Forced                         : No


Text #4

ID                             : 6

Format                         : ASS

Codec ID                       : S_TEXT/ASS

Codec ID/Info                  : Advanced Sub Station Alpha

Duration                       : 1 h 27 min

Bit rate                       : 98 b/s

Count of elements              : 673

Compression mode               : Lossless

Stream size                    : 63.0 KiB (0%)

Title                          : 英文字幕

Language                       : English

Default                        : No

Forced                         : No


Menu

00:00:00.000                   : en:00:00:00.000

00:08:38.309                   : en:00:08:38.309

00:11:02.954                   : en:00:11:02.954

00:19:33.672                   : en:00:19:33.672

00:26:54.780                   : en:00:26:54.780

00:39:52.765                   : en:00:39:52.765

00:53:39.842                   : en:00:53:39.842

01:05:36.391                   : en:01:05:36.391

01:18:30.539                   : en:01:18:30.539

01:24:41.159                   : en:01:24:41.159






1 个附件 售价 大小 下载 时间

贪婪四重奏.The Lickerish Quartet.1970.IT.US.BluRay.1920x1028p.x264.AC3-KOOK.[中英双字].torrent 0 金币 87.93K 2976 次 5天前

#1楼
发帖时间:2017-12-07 18:42:54   |   回复数:6
blue23
隐世仙人♂
感谢楼主分享
5天前 #2楼
liyouchai
超凡入圣№
谢谢楼主分享资源
5天前 #3楼
jokingcheung
一代宗师
谢谢分享
5天前 #4楼
911degrees
超凡入圣№
非常感谢,谢谢分享
4天前 #5楼
911degrees
超凡入圣№
非常感谢,谢谢分享
4天前 #6楼
tanchoohoon
武林盟主
感谢楼主的无私分享
3天前 #7楼
游客组